+ dct-stats.com »  :::: Bollywood Zone » Bollywood Movies (Original Rips) » High Resolution Movies
|-  Soorma (2018) Hindi Movie - 2CD - HDRip[x264 - AC3(5.1Ch)]


Mastercard 10% Off

Soorma (2018) Hindi Movie - 2CD - HDRip[x264 - AC3(5.1Ch)]

0 Members and 1 Guest are viewing this topic.

October 20, 2018, 04:16:50 PM
  • Semi Newbie
  • **
  • Topic Author
  • Thank You: 0
  • Reputation: -1
  • Activity:
    5.4%
  • Country: bd
  • Posts: 27
  • Topics: 27
  • Join Date: Oct 2018
  • ShareSpark Member
      Soorma (2018) Hindi Movie - 2CD -
HDRip[x264 - AC3(5.1Ch)]   
 





Code: [Select]
General
Format                                   : Matroska
Format version                           : Version 4
File size                                : 1.40 GiB
Duration                                 : 2 h 32 min

Video
ID                                       : 1
Format                                   : AVC
Format/Info                              : Advanced Video Codec
Format profile                           : [email protected]
Format settings                          : CABAC / 4 Ref Frames
Format settings, CABAC                   : Yes
Format settings, RefFrames               : 4 frames
Codec ID                                 : V_MPEG4/ISO/AVC
Duration                                 : 2 h 32 min
Bit rate                                 : 1 125 kb/s
Width                                    : 720 pixels
Height                                   : 304 pixels
Display aspect ratio                     : 2.35:1
Frame rate mode                          : Constant
Frame rate                               : 25.000 FPS
Color space                              : YUV
Chroma subsampling                       : 4:2:0
Bit depth                                : 8 bits
Scan type                                : Progressive
Bits/(Pixel*Frame)                       : 0.206
Stream size                              : 1.20 GiB (85%)

Audio
ID                                       : 2
Format                                   : AC-3
Format/Info                              : Audio Coding 3
Commercial name                          : Dolby Digital
Codec ID                                 : A_AC3
Duration                                 : 2 h 32 min
Bit rate mode                            : Constant
Bit rate                                 : 192 kb/s
Channel(s)                               : 6 channels
Channel layout                           : L R C LFE Ls Rs
Sampling rate                            : 48.0 kHz
Stream size                              : 209 MiB (15%)



  Thumbnail   







OR

OR

Share this topic on FacebookShare this topic on GoogleShare this topic on MySpaceShare this topic on TwitterShare this topic on Yahoo




Tags:
 

Related Topics

  Subject / Started by Replies Last post
0 Replies
117 Views
Last post October 16, 2018, 05:24:37 PM
by RoBi007
0 Replies
67 Views
Last post October 17, 2018, 01:45:56 PM
by shahzaibjaan
0 Replies
118 Views
Last post October 17, 2018, 02:54:56 PM
by shahzaibjaan
0 Replies
31 Views
Last post October 20, 2018, 04:55:09 PM
by BUNGILI
0 Replies
50 Views
Last post October 20, 2018, 05:23:57 PM
by BUNGILI




Back to top
Sitemap